<svg xmlns="http://www.w3.org/2000/svg">
<defs>
<font
       horiz-adv-x="2048"
       id="EmbeddedFont_1">
      <font-face
         id="font-face8949"
         descent="476"
         ascent="1879"
         units-per-em="2048"
         font-family="DejaVu Sans embedded" />
      <missing-glyph
         id="missing-glyph8951"
         horiz-adv-x="2048">
        <path
           id="path8953"
           d="M 0,2048 L 2047,2048 2047,1 0,1 0,2048 Z"
           style="fill:none;stroke:black;stroke-width:33" />
      </missing-glyph>
      <glyph
         id="glyph8955"
         horiz-adv-x="1191"
         unicode=" " />
      <glyph
         id="glyph8957"
         horiz-adv-x="186"
         unicode="'">
        <path
           id="path8959"
           d="M 367,1493 L 367,938 197,938 197,1493 367,1493 Z" />
      </glyph>
      <glyph
         id="glyph8961"
         horiz-adv-x="477"
         unicode="(">
        <path
           id="path8963"
           d="M 635,1554 C 546,1401 479,1249 436,1099 393,949 371,797 371,643 371,489 393,337 437,186 480,35 546,-117 635,-270 635,-270 635,-270 475,-270 375,-113 300,41 251,192 201,343 176,494 176,643 176,792 201,941 250,1092 299,1243 374,1397 475,1554 475,1554 475,1554 635,1554 Z" />
      </glyph>
      <glyph
         id="glyph8965"
         horiz-adv-x="451"
         unicode=")">
        <path
           id="path8967"
           d="M 164,1554 C 164,1554 164,1554 324,1554 424,1397 499,1243 549,1092 598,941 623,792 623,643 623,494 598,343 549,192 499,41 424,-113 324,-270 324,-270 324,-270 164,-270 253,-117 319,35 363,186 406,337 428,489 428,643 428,797 406,949 363,1099 319,1249 253,1401 164,1554 Z" />
      </glyph>
      <glyph
         id="glyph8969"
         horiz-adv-x="1271"
         unicode="+">
        <path
           id="path8971"
           d="M 942,1284 L 942,727 1499,727 1499,557 942,557 942,0 774,0 774,557 217,557 217,727 774,727 774,1284 942,1284 Z" />
      </glyph>
      <glyph
         id="glyph8973"
         horiz-adv-x="1033"
         unicode="0">
        <path
           id="path8975"
           d="M 651,1360 C 547,1360 469,1309 417,1207 364,1104 338,950 338,745 338,540 364,387 417,285 469,182 547,131 651,131 756,131 834,182 887,285 939,387 965,540 965,745 965,950 939,1104 887,1207 834,1309 756,1360 651,1360 Z M 651,1520 C 818,1520 946,1454 1035,1322 1123,1189 1167,997 1167,745 1167,494 1123,302 1035,170 946,37 818,-29 651,-29 484,-29 356,37 268,170 179,302 135,494 135,745 135,997 179,1189 268,1322 356,1454 484,1520 651,1520 Z" />
      </glyph>
      <glyph
         id="glyph8977"
         horiz-adv-x="900"
         unicode="1">
        <path
           id="path8979"
           d="M 254,170 L 584,170 584,1309 225,1237 225,1421 582,1493 784,1493 784,170 1114,170 1114,0 254,0 254,170 Z" />
      </glyph>
      <glyph
         id="glyph8981"
         horiz-adv-x="980"
         unicode="3">
        <path
           id="path8983"
           d="M 831,805 C 928,784 1003,741 1058,676 1112,611 1139,530 1139,434 1139,287 1088,173 987,92 886,11 742,-29 555,-29 492,-29 428,-23 362,-11 295,2 227,20 156,45 156,45 156,45 156,240 212,207 273,183 340,166 407,149 476,141 549,141 676,141 772,166 839,216 905,266 938,339 938,434 938,522 907,591 846,641 784,690 698,715 588,715 588,715 588,715 414,715 414,715 414,715 414,881 414,881 414,881 596,881 695,881 771,901 824,941 877,980 903,1037 903,1112 903,1189 876,1248 822,1289 767,1330 689,1350 588,1350 533,1350 473,1344 410,1332 347,1320 277,1301 201,1276 201,1276 201,1276 201,1456 278,1477 350,1493 417,1504 484,1515 547,1520 606,1520 759,1520 881,1485 970,1416 1059,1346 1104,1252 1104,1133 1104,1050 1080,981 1033,924 986,867 918,827 831,805 Z" />
      </glyph>
      <glyph
         id="glyph8985"
         horiz-adv-x="953"
         unicode="7">
        <path
           id="path8987"
           d="M 168,1493 L 1128,1493 1128,1407 586,0 375,0 885,1323 168,1323 168,1493 Z" />
      </glyph>
      <glyph
         id="glyph8989"
         horiz-adv-x="1271"
         unicode="=">
        <path
           id="path8991"
           d="M 217,930 L 1499,930 1499,762 217,762 217,930 Z M 217,522 L 1499,522 1499,352 217,352 217,522 Z" />
      </glyph>
      <glyph
         id="glyph8993"
         horiz-adv-x="1191"
         unicode="C">
        <path
           id="path8995"
           d="M 1319,1378 C 1319,1378 1319,1378 1319,1165 1251,1228 1179,1276 1102,1307 1025,1338 943,1354 856,1354 685,1354 555,1302 464,1198 373,1093 328,942 328,745 328,548 373,398 464,294 555,189 685,137 856,137 943,137 1025,153 1102,184 1179,215 1251,263 1319,326 1319,326 1319,326 1319,115 1248,67 1174,31 1095,7 1016,-17 932,-29 844,-29 618,-29 440,40 310,179 180,317 115,506 115,745 115,985 180,1174 310,1313 440,1451 618,1520 844,1520 933,1520 1018,1508 1097,1485 1176,1461 1250,1425 1319,1378 Z" />
      </glyph>
      <glyph
         id="glyph8997"
         horiz-adv-x="1351"
         unicode="M">
        <path
           id="path8999"
           d="M 201,1493 L 502,1493 883,477 1266,1493 1567,1493 1567,0 1370,0 1370,1311 985,287 782,287 397,1311 397,0 201,0 201,1493 Z" />
      </glyph>
      <glyph
         id="glyph9001"
         horiz-adv-x="953"
         unicode="a">
        <path
           id="path9003"
           d="M 702,563 C 553,563 450,546 393,512 336,478 307,420 307,338 307,273 329,221 372,183 415,144 473,125 547,125 649,125 731,161 793,234 854,306 885,402 885,522 885,522 885,522 885,563 885,563 885,563 702,563 Z M 1069,639 C 1069,639 1069,639 1069,0 1069,0 1069,0 885,0 885,0 885,0 885,170 843,102 791,52 728,20 665,-13 589,-29 498,-29 383,-29 292,3 225,68 157,132 123,218 123,326 123,452 165,547 250,611 334,675 460,707 627,707 627,707 627,707 885,707 885,707 885,707 885,725 885,810 857,875 802,922 746,968 668,991 567,991 503,991 441,983 380,968 319,953 261,930 205,899 205,899 205,899 205,1069 272,1095 338,1115 401,1128 464,1141 526,1147 586,1147 748,1147 869,1105 949,1021 1029,937 1069,810 1069,639 Z" />
      </glyph>
      <glyph
         id="glyph9005"
         horiz-adv-x="1006"
         unicode="b">
        <path
           id="path9007"
           d="M 997,559 C 997,694 969,801 914,878 858,955 781,993 684,993 587,993 510,955 455,878 399,801 371,694 371,559 371,424 399,318 455,241 510,164 587,125 684,125 781,125 858,164 914,241 969,318 997,424 997,559 Z M 371,950 C 410,1017 459,1066 518,1099 577,1131 647,1147 729,1147 865,1147 976,1093 1061,985 1146,877 1188,735 1188,559 1188,383 1146,241 1061,133 976,25 865,-29 729,-29 647,-29 577,-13 518,20 459,52 410,101 371,168 371,168 371,168 371,0 371,0 371,0 186,0 186,0 186,0 186,1556 186,1556 186,1556 371,1556 371,1556 371,1556 371,950 Z" />
      </glyph>
      <glyph
         id="glyph9009"
         horiz-adv-x="874"
         unicode="c">
        <path
           id="path9011"
           d="M 999,1077 C 999,1077 999,1077 999,905 947,934 895,955 843,970 790,984 737,991 684,991 565,991 472,953 406,878 340,802 307,696 307,559 307,422 340,316 406,241 472,165 565,127 684,127 737,127 790,134 843,149 895,163 947,184 999,213 999,213 999,213 999,43 948,19 895,1 840,-11 785,-23 726,-29 664,-29 495,-29 361,24 262,130 163,236 113,379 113,559 113,742 163,885 264,990 364,1095 501,1147 676,1147 733,1147 788,1141 842,1130 896,1118 948,1100 999,1077 Z" />
      </glyph>
      <glyph
         id="glyph9013"
         horiz-adv-x="1006"
         unicode="d">
        <path
           id="path9015"
           d="M 930,950 C 930,950 930,950 930,1556 930,1556 930,1556 1114,1556 1114,1556 1114,1556 1114,0 1114,0 1114,0 930,0 930,0 930,0 930,168 891,101 843,52 784,20 725,-13 654,-29 571,-29 436,-29 326,25 241,133 156,241 113,383 113,559 113,735 156,877 241,985 326,1093 436,1147 571,1147 654,1147 725,1131 784,1099 843,1066 891,1017 930,950 Z M 303,559 C 303,424 331,318 387,241 442,164 519,125 616,125 713,125 790,164 846,241 902,318 930,424 930,559 930,694 902,801 846,878 790,955 713,993 616,993 519,993 442,955 387,878 331,801 303,694 303,559 Z" />
      </glyph>
      <glyph
         id="glyph9017"
         horiz-adv-x="1033"
         unicode="e">
        <path
           id="path9019"
           d="M 1151,606 C 1151,606 1151,606 1151,516 1151,516 1151,516 305,516 313,389 351,293 420,227 488,160 583,127 705,127 776,127 844,136 911,153 977,170 1043,196 1108,231 1108,231 1108,231 1108,57 1042,29 974,8 905,-7 836,-22 765,-29 694,-29 515,-29 374,23 270,127 165,231 113,372 113,549 113,732 163,878 262,986 361,1093 494,1147 662,1147 813,1147 932,1099 1020,1002 1107,905 1151,773 1151,606 Z M 967,659 C 966,760 938,841 883,901 828,961 755,991 664,991 561,991 479,962 418,904 356,846 320,764 311,659 311,659 311,659 967,659 Z" />
      </glyph>
      <glyph
         id="glyph9021"
         horiz-adv-x="716"
         unicode="f">
        <path
           id="path9023"
           d="M 760,1556 C 760,1556 760,1556 760,1403 760,1403 760,1403 584,1403 518,1403 472,1390 447,1363 421,1336 408,1288 408,1219 408,1219 408,1219 408,1120 408,1120 408,1120 711,1120 711,1120 711,1120 711,977 711,977 711,977 408,977 408,977 408,977 408,0 408,0 408,0 223,0 223,0 223,0 223,977 223,977 223,977 47,977 47,977 47,977 47,1120 47,1120 47,1120 223,1120 223,1120 223,1120 223,1198 223,1323 252,1414 310,1471 368,1528 460,1556 586,1556 586,1556 586,1556 760,1556 Z" />
      </glyph>
      <glyph
         id="glyph9025"
         horiz-adv-x="1006"
         unicode="g">
        <path
           id="path9027"
           d="M 930,573 C 930,706 903,810 848,883 793,956 715,993 616,993 517,993 441,956 386,883 331,810 303,706 303,573 303,440 331,337 386,264 441,191 517,154 616,154 715,154 793,191 848,264 903,337 930,440 930,573 Z M 1114,139 C 1114,-52 1072,-193 987,-287 902,-379 773,-426 598,-426 533,-426 472,-421 415,-412 358,-402 302,-387 248,-367 248,-367 248,-367 248,-188 302,-217 355,-239 408,-253 461,-267 514,-274 569,-274 690,-274 780,-242 840,-180 900,-116 930,-21 930,106 930,106 930,106 930,197 892,131 843,82 784,49 725,16 654,0 571,0 434,0 323,52 239,157 155,262 113,400 113,573 113,746 155,885 239,990 323,1095 434,1147 571,1147 654,1147 725,1131 784,1098 843,1065 892,1016 930,950 930,950 930,950 930,1120 930,1120 930,1120 1114,1120 1114,1120 1114,1120 1114,139 Z" />
      </glyph>
      <glyph
         id="glyph9029"
         horiz-adv-x="953"
         unicode="h">
        <path
           id="path9031"
           d="M 1124,676 C 1124,676 1124,676 1124,0 1124,0 1124,0 940,0 940,0 940,0 940,670 940,776 919,855 878,908 837,961 775,987 692,987 593,987 514,955 457,892 400,829 371,742 371,633 371,633 371,633 371,0 371,0 371,0 186,0 186,0 186,0 186,1556 186,1556 186,1556 371,1556 371,1556 371,1556 371,946 415,1013 467,1064 527,1097 586,1130 655,1147 733,1147 862,1147 959,1107 1025,1028 1091,948 1124,831 1124,676 Z" />
      </glyph>
      <glyph
         id="glyph9033"
         horiz-adv-x="186"
         unicode="i">
        <path
           id="path9035"
           d="M 193,1120 L 377,1120 377,0 193,0 193,1120 Z M 193,1556 L 377,1556 377,1323 193,1323 193,1556 Z" />
      </glyph>
      <glyph
         id="glyph9037"
         horiz-adv-x="186"
         unicode="l">
        <path
           id="path9039"
           d="M 193,1556 L 377,1556 377,0 193,0 193,1556 Z" />
      </glyph>
      <glyph
         id="glyph9041"
         horiz-adv-x="1641"
         unicode="m">
        <path
           id="path9043"
           d="M 1065,905 C 1111,988 1166,1049 1230,1088 1294,1127 1369,1147 1456,1147 1573,1147 1663,1106 1726,1025 1789,943 1821,827 1821,676 1821,676 1821,676 1821,0 1821,0 1821,0 1636,0 1636,0 1636,0 1636,670 1636,777 1617,857 1579,909 1541,961 1483,987 1405,987 1310,987 1234,955 1179,892 1124,829 1096,742 1096,633 1096,633 1096,633 1096,0 1096,0 1096,0 911,0 911,0 911,0 911,670 911,778 892,858 854,910 816,961 757,987 678,987 584,987 509,955 454,892 399,828 371,742 371,633 371,633 371,633 371,0 371,0 371,0 186,0 186,0 186,0 186,1120 186,1120 186,1120 371,1120 371,1120 371,1120 371,946 413,1015 463,1065 522,1098 581,1131 650,1147 731,1147 812,1147 882,1126 939,1085 996,1044 1038,984 1065,905 Z" />
      </glyph>
      <glyph
         id="glyph9045"
         horiz-adv-x="953"
         unicode="n">
        <path
           id="path9047"
           d="M 1124,676 C 1124,676 1124,676 1124,0 1124,0 1124,0 940,0 940,0 940,0 940,670 940,776 919,855 878,908 837,961 775,987 692,987 593,987 514,955 457,892 400,829 371,742 371,633 371,633 371,633 371,0 371,0 371,0 186,0 186,0 186,0 186,1120 186,1120 186,1120 371,1120 371,1120 371,1120 371,946 415,1013 467,1064 527,1097 586,1130 655,1147 733,1147 862,1147 959,1107 1025,1028 1091,948 1124,831 1124,676 Z" />
      </glyph>
      <glyph
         id="glyph9049"
         horiz-adv-x="1033"
         unicode="o">
        <path
           id="path9051"
           d="M 627,991 C 528,991 450,953 393,876 336,799 307,693 307,559 307,425 336,320 393,243 450,166 528,127 627,127 725,127 803,166 860,243 917,320 946,426 946,559 946,692 917,797 860,875 803,952 725,991 627,991 Z M 627,1147 C 787,1147 913,1095 1004,991 1095,887 1141,743 1141,559 1141,376 1095,232 1004,128 913,23 787,-29 627,-29 466,-29 341,23 250,128 159,232 113,376 113,559 113,743 159,887 250,991 341,1095 466,1147 627,1147 Z" />
      </glyph>
      <glyph
         id="glyph9053"
         horiz-adv-x="1006"
         unicode="p">
        <path
           id="path9055"
           d="M 371,168 C 371,168 371,168 371,-426 371,-426 371,-426 186,-426 186,-426 186,-426 186,1120 186,1120 186,1120 371,1120 371,1120 371,1120 371,950 410,1017 459,1066 518,1099 577,1131 647,1147 729,1147 865,1147 976,1093 1061,985 1146,877 1188,735 1188,559 1188,383 1146,241 1061,133 976,25 865,-29 729,-29 647,-29 577,-13 518,20 459,52 410,101 371,168 Z M 997,559 C 997,694 969,801 914,878 858,955 781,993 684,993 587,993 510,955 455,878 399,801 371,694 371,559 371,424 399,318 455,241 510,164 587,125 684,125 781,125 858,164 914,241 969,318 997,424 997,559 Z" />
      </glyph>
      <glyph
         id="glyph9057"
         horiz-adv-x="1006"
         unicode="q">
        <path
           id="path9059"
           d="M 303,559 C 303,424 331,318 387,241 442,164 519,125 616,125 713,125 790,164 846,241 902,318 930,424 930,559 930,694 902,801 846,878 790,955 713,993 616,993 519,993 442,955 387,878 331,801 303,694 303,559 Z M 930,168 C 891,101 843,52 784,20 725,-13 654,-29 571,-29 436,-29 326,25 241,133 156,241 113,383 113,559 113,735 156,877 241,985 326,1093 436,1147 571,1147 654,1147 725,1131 784,1099 843,1066 891,1017 930,950 930,950 930,950 930,1120 930,1120 930,1120 1114,1120 1114,1120 1114,1120 1114,-426 1114,-426 1114,-426 930,-426 930,-426 930,-426 930,168 Z" />
      </glyph>
      <glyph
         id="glyph9061"
         horiz-adv-x="689"
         unicode="r">
        <path
           id="path9063"
           d="M 842,948 C 821,960 799,969 775,975 750,980 723,983 694,983 590,983 510,949 455,882 399,814 371,717 371,590 371,590 371,590 371,0 371,0 371,0 186,0 186,0 186,0 186,1120 186,1120 186,1120 371,1120 371,1120 371,1120 371,946 410,1014 460,1065 522,1098 584,1131 659,1147 748,1147 761,1147 775,1146 790,1145 805,1143 822,1140 841,1137 841,1137 841,1137 842,948 Z" />
      </glyph>
      <glyph
         id="glyph9065"
         horiz-adv-x="848"
         unicode="s">
        <path
           id="path9067"
           d="M 907,1087 C 907,1087 907,1087 907,913 855,940 801,960 745,973 689,986 631,993 571,993 480,993 411,979 366,951 320,923 297,881 297,825 297,782 313,749 346,725 379,700 444,677 543,655 543,655 543,655 606,641 737,613 830,574 885,523 940,472 967,400 967,309 967,205 926,123 844,62 761,1 648,-29 504,-29 444,-29 382,-23 317,-12 252,0 183,18 111,41 111,41 111,41 111,231 179,196 246,169 312,152 378,134 443,125 508,125 595,125 661,140 708,170 755,199 778,241 778,295 778,345 761,383 728,410 694,437 620,462 506,487 506,487 506,487 442,502 328,526 246,563 195,613 144,662 119,730 119,817 119,922 156,1004 231,1061 306,1118 412,1147 549,1147 617,1147 681,1142 741,1132 801,1122 856,1107 907,1087 Z" />
      </glyph>
      <glyph
         id="glyph9069"
         horiz-adv-x="689"
         unicode="t">
        <path
           id="path9071"
           d="M 375,1438 C 375,1438 375,1438 375,1120 375,1120 375,1120 754,1120 754,1120 754,1120 754,977 754,977 754,977 375,977 375,977 375,977 375,369 375,278 388,219 413,193 438,167 488,154 565,154 565,154 565,154 754,154 754,154 754,154 754,0 754,0 754,0 565,0 423,0 325,27 271,80 217,133 190,229 190,369 190,369 190,369 190,977 190,977 190,977 55,977 55,977 55,977 55,1120 55,1120 55,1120 190,1120 190,1120 190,1120 190,1438 190,1438 190,1438 375,1438 Z" />
      </glyph>
      <glyph
         id="glyph9073"
         horiz-adv-x="927"
         unicode="u">
        <path
           id="path9075"
           d="M 174,442 C 174,442 174,442 174,1120 174,1120 174,1120 358,1120 358,1120 358,1120 358,449 358,343 379,264 420,211 461,158 523,131 606,131 705,131 784,163 842,226 899,289 928,376 928,485 928,485 928,485 928,1120 928,1120 928,1120 1112,1120 1112,1120 1112,1120 1112,0 1112,0 1112,0 928,0 928,0 928,0 928,172 883,104 832,54 773,21 714,-12 645,-29 567,-29 438,-29 341,11 274,91 207,171 174,288 174,442 Z" />
      </glyph>
      <glyph
         id="glyph9077"
         horiz-adv-x="1086"
         unicode="v">
        <path
           id="path9079"
           d="M 61,1120 L 256,1120 606,180 956,1120 1151,1120 731,0 481,0 61,1120 Z" />
      </glyph>
      <glyph
         id="glyph9081"
         horiz-adv-x="1086"
         unicode="y">
        <path
           id="path9083"
           d="M 659,-104 C 607,-237 556,-324 507,-365 458,-406 392,-426 309,-426 309,-426 309,-426 162,-426 162,-426 162,-426 162,-272 162,-272 162,-272 270,-272 321,-272 360,-260 388,-236 416,-212 447,-155 481,-66 481,-66 481,-66 514,18 514,18 514,18 61,1120 61,1120 61,1120 256,1120 256,1120 256,1120 606,244 606,244 606,244 956,1120 956,1120 956,1120 1151,1120 1151,1120 1151,1120 659,-104 Z" />
      </glyph>
      <glyph
         id="glyph9085"
         horiz-adv-x="901"
         unicode="z">
        <path
           id="path9087"
           d="M 113,1120 L 987,1120 987,952 295,147 987,147 987,0 88,0 88,168 780,973 113,973 113,1120 Z" />
      </glyph>
      <glyph
         id="glyph9089"
         horiz-adv-x="636"
         unicode="°">
        <path
           id="path9091"
           d="M 512,1391 C 459,1391 414,1373 377,1336 340,1299 322,1253 322,1200 322,1147 340,1103 377,1067 414,1030 459,1012 512,1012 565,1012 610,1030 647,1067 684,1103 702,1147 702,1200 702,1253 684,1298 647,1335 610,1372 565,1391 512,1391 Z M 512,1520 C 555,1520 596,1512 635,1496 674,1479 708,1456 737,1425 768,1395 791,1361 806,1323 821,1285 829,1244 829,1200 829,1112 798,1038 737,977 675,916 599,885 510,885 420,885 345,915 285,975 225,1035 195,1110 195,1200 195,1289 226,1365 287,1427 348,1489 423,1520 512,1520 Z" />
      </glyph>
      <glyph
         id="glyph9093"
         horiz-adv-x="953"
         unicode="à">
        <path
           id="path9095"
           d="M 702,563 C 553,563 450,546 393,512 336,478 307,420 307,338 307,273 329,221 372,183 415,144 473,125 547,125 649,125 731,161 793,234 854,306 885,402 885,522 885,522 885,522 885,563 885,563 885,563 702,563 Z M 1069,639 C 1069,639 1069,639 1069,0 1069,0 1069,0 885,0 885,0 885,0 885,170 843,102 791,52 728,20 665,-13 589,-29 498,-29 383,-29 292,3 225,68 157,132 123,218 123,326 123,452 165,547 250,611 334,675 460,707 627,707 627,707 627,707 885,707 885,707 885,707 885,725 885,810 857,875 802,922 746,968 668,991 567,991 503,991 441,983 380,968 319,953 261,930 205,899 205,899 205,899 205,1069 272,1095 338,1115 401,1128 464,1141 526,1147 586,1147 748,1147 869,1105 949,1021 1029,937 1069,810 1069,639 Z M 449,1638 L 731,1264 578,1264 252,1638 449,1638 Z" />
      </glyph>
      <glyph
         id="glyph9097"
         horiz-adv-x="1033"
         unicode="é">
        <path
           id="path9099"
           d="M 1151,606 C 1151,606 1151,606 1151,516 1151,516 1151,516 305,516 313,389 351,293 420,227 488,160 583,127 705,127 776,127 844,136 911,153 977,170 1043,196 1108,231 1108,231 1108,231 1108,57 1042,29 974,8 905,-7 836,-22 765,-29 694,-29 515,-29 374,23 270,127 165,231 113,372 113,549 113,732 163,878 262,986 361,1093 494,1147 662,1147 813,1147 932,1099 1020,1002 1107,905 1151,773 1151,606 Z M 967,659 C 966,760 938,841 883,901 828,961 755,991 664,991 561,991 479,962 418,904 356,846 320,764 311,659 311,659 311,659 967,659 Z M 790,1638 L 989,1638 663,1262 510,1262 790,1638 Z" />
      </glyph>
    </font>
    <desc
       id="desc9105">Slide</desc>
    <desc
       id="desc11413">Group</desc>
    <font
       horiz-adv-x="2048"
       id="font12924">
      <font-face
         id="font-face9103"
         descent="476"
         ascent="1879"
         units-per-em="2048"
         font-family="DejaVu Sans embedded" />
      <missing-glyph
         id="missing-glyph9105"
         horiz-adv-x="2048">
        <path
           id="path9107"
           d="M 0,2048 L 2047,2048 2047,1 0,1 0,2048 Z"
           style="fill:none;stroke:black;stroke-width:33" />
      </missing-glyph>
      <glyph
         id="glyph9109"
         horiz-adv-x="1191"
         unicode=" " />
      <glyph
         id="glyph9111"
         horiz-adv-x="213"
         unicode="!">
        <path
           id="path9113"
           d="M 309,254 L 512,254 512,0 309,0 309,254 Z M 309,1493 L 512,1493 512,838 492,481 330,481 309,838 309,1493 Z" />
      </glyph>
      <glyph
         id="glyph9115"
         horiz-adv-x="1271"
         unicode="+">
        <path
           id="path9117"
           d="M 942,1284 L 942,727 1499,727 1499,557 942,557 942,0 774,0 774,557 217,557 217,727 774,727 774,1284 942,1284 Z" />
      </glyph>
      <glyph
         id="glyph9119"
         horiz-adv-x="557"
         unicode="-">
        <path
           id="path9121"
           d="M 100,643 L 639,643 639,479 100,479 100,643 Z" />
      </glyph>
      <glyph
         id="glyph9123"
         horiz-adv-x="1033"
         unicode="0">
        <path
           id="path9125"
           d="M 651,1360 C 547,1360 469,1309 417,1207 364,1104 338,950 338,745 338,540 364,387 417,285 469,182 547,131 651,131 756,131 834,182 887,285 939,387 965,540 965,745 965,950 939,1104 887,1207 834,1309 756,1360 651,1360 Z M 651,1520 C 818,1520 946,1454 1035,1322 1123,1189 1167,997 1167,745 1167,494 1123,302 1035,170 946,37 818,-29 651,-29 484,-29 356,37 268,170 179,302 135,494 135,745 135,997 179,1189 268,1322 356,1454 484,1520 651,1520 Z" />
      </glyph>
      <glyph
         id="glyph9127"
         horiz-adv-x="900"
         unicode="1">
        <path
           id="path9129"
           d="M 254,170 L 584,170 584,1309 225,1237 225,1421 582,1493 784,1493 784,170 1114,170 1114,0 254,0 254,170 Z" />
      </glyph>
      <glyph
         id="glyph9131"
         horiz-adv-x="980"
         unicode="3">
        <path
           id="path9133"
           d="M 831,805 C 928,784 1003,741 1058,676 1112,611 1139,530 1139,434 1139,287 1088,173 987,92 886,11 742,-29 555,-29 492,-29 428,-23 362,-11 295,2 227,20 156,45 156,45 156,45 156,240 212,207 273,183 340,166 407,149 476,141 549,141 676,141 772,166 839,216 905,266 938,339 938,434 938,522 907,591 846,641 784,690 698,715 588,715 588,715 588,715 414,715 414,715 414,715 414,881 414,881 414,881 596,881 695,881 771,901 824,941 877,980 903,1037 903,1112 903,1189 876,1248 822,1289 767,1330 689,1350 588,1350 533,1350 473,1344 410,1332 347,1320 277,1301 201,1276 201,1276 201,1276 201,1456 278,1477 350,1493 417,1504 484,1515 547,1520 606,1520 759,1520 881,1485 970,1416 1059,1346 1104,1252 1104,1133 1104,1050 1080,981 1033,924 986,867 918,827 831,805 Z" />
      </glyph>
      <glyph
         id="glyph9135"
         horiz-adv-x="1033"
         unicode="6">
        <path
           id="path9137"
           d="M 676,827 C 585,827 514,796 461,734 408,672 381,587 381,479 381,372 408,287 461,225 514,162 585,131 676,131 767,131 839,162 892,225 945,287 971,372 971,479 971,587 945,672 892,734 839,796 767,827 676,827 Z M 1077,1460 C 1077,1460 1077,1460 1077,1276 1026,1300 975,1318 924,1331 872,1344 821,1350 770,1350 637,1350 535,1305 465,1215 394,1125 354,989 344,807 383,865 433,910 492,941 551,972 617,987 688,987 838,987 957,942 1044,851 1131,760 1174,636 1174,479 1174,326 1129,203 1038,110 947,17 827,-29 676,-29 503,-29 371,37 280,170 189,302 143,494 143,745 143,981 199,1169 311,1310 423,1450 573,1520 762,1520 813,1520 864,1515 916,1505 967,1495 1021,1480 1077,1460 Z" />
      </glyph>
      <glyph
         id="glyph9139"
         horiz-adv-x="1191"
         unicode="C">
        <path
           id="path9141"
           d="M 1319,1378 C 1319,1378 1319,1378 1319,1165 1251,1228 1179,1276 1102,1307 1025,1338 943,1354 856,1354 685,1354 555,1302 464,1198 373,1093 328,942 328,745 328,548 373,398 464,294 555,189 685,137 856,137 943,137 1025,153 1102,184 1179,215 1251,263 1319,326 1319,326 1319,326 1319,115 1248,67 1174,31 1095,7 1016,-17 932,-29 844,-29 618,-29 440,40 310,179 180,317 115,506 115,745 115,985 180,1174 310,1313 440,1451 618,1520 844,1520 933,1520 1018,1508 1097,1485 1176,1461 1250,1425 1319,1378 Z" />
      </glyph>
      <glyph
         id="glyph9143"
         horiz-adv-x="953"
         unicode="a">
        <path
           id="path9145"
           d="M 702,563 C 553,563 450,546 393,512 336,478 307,420 307,338 307,273 329,221 372,183 415,144 473,125 547,125 649,125 731,161 793,234 854,306 885,402 885,522 885,522 885,522 885,563 885,563 885,563 702,563 Z M 1069,639 C 1069,639 1069,639 1069,0 1069,0 1069,0 885,0 885,0 885,0 885,170 843,102 791,52 728,20 665,-13 589,-29 498,-29 383,-29 292,3 225,68 157,132 123,218 123,326 123,452 165,547 250,611 334,675 460,707 627,707 627,707 627,707 885,707 885,707 885,707 885,725 885,810 857,875 802,922 746,968 668,991 567,991 503,991 441,983 380,968 319,953 261,930 205,899 205,899 205,899 205,1069 272,1095 338,1115 401,1128 464,1141 526,1147 586,1147 748,1147 869,1105 949,1021 1029,937 1069,810 1069,639 Z" />
      </glyph>
      <glyph
         id="glyph9147"
         horiz-adv-x="1006"
         unicode="b">
        <path
           id="path9149"
           d="M 997,559 C 997,694 969,801 914,878 858,955 781,993 684,993 587,993 510,955 455,878 399,801 371,694 371,559 371,424 399,318 455,241 510,164 587,125 684,125 781,125 858,164 914,241 969,318 997,424 997,559 Z M 371,950 C 410,1017 459,1066 518,1099 577,1131 647,1147 729,1147 865,1147 976,1093 1061,985 1146,877 1188,735 1188,559 1188,383 1146,241 1061,133 976,25 865,-29 729,-29 647,-29 577,-13 518,20 459,52 410,101 371,168 371,168 371,168 371,0 371,0 371,0 186,0 186,0 186,0 186,1556 186,1556 186,1556 371,1556 371,1556 371,1556 371,950 Z" />
      </glyph>
      <glyph
         id="glyph9151"
         horiz-adv-x="874"
         unicode="c">
        <path
           id="path9153"
           d="M 999,1077 C 999,1077 999,1077 999,905 947,934 895,955 843,970 790,984 737,991 684,991 565,991 472,953 406,878 340,802 307,696 307,559 307,422 340,316 406,241 472,165 565,127 684,127 737,127 790,134 843,149 895,163 947,184 999,213 999,213 999,213 999,43 948,19 895,1 840,-11 785,-23 726,-29 664,-29 495,-29 361,24 262,130 163,236 113,379 113,559 113,742 163,885 264,990 364,1095 501,1147 676,1147 733,1147 788,1141 842,1130 896,1118 948,1100 999,1077 Z" />
      </glyph>
      <glyph
         id="glyph9155"
         horiz-adv-x="1006"
         unicode="d">
        <path
           id="path9157"
           d="M 930,950 C 930,950 930,950 930,1556 930,1556 930,1556 1114,1556 1114,1556 1114,1556 1114,0 1114,0 1114,0 930,0 930,0 930,0 930,168 891,101 843,52 784,20 725,-13 654,-29 571,-29 436,-29 326,25 241,133 156,241 113,383 113,559 113,735 156,877 241,985 326,1093 436,1147 571,1147 654,1147 725,1131 784,1099 843,1066 891,1017 930,950 Z M 303,559 C 303,424 331,318 387,241 442,164 519,125 616,125 713,125 790,164 846,241 902,318 930,424 930,559 930,694 902,801 846,878 790,955 713,993 616,993 519,993 442,955 387,878 331,801 303,694 303,559 Z" />
      </glyph>
      <glyph
         id="glyph9159"
         horiz-adv-x="1033"
         unicode="e">
        <path
           id="path9161"
           d="M 1151,606 C 1151,606 1151,606 1151,516 1151,516 1151,516 305,516 313,389 351,293 420,227 488,160 583,127 705,127 776,127 844,136 911,153 977,170 1043,196 1108,231 1108,231 1108,231 1108,57 1042,29 974,8 905,-7 836,-22 765,-29 694,-29 515,-29 374,23 270,127 165,231 113,372 113,549 113,732 163,878 262,986 361,1093 494,1147 662,1147 813,1147 932,1099 1020,1002 1107,905 1151,773 1151,606 Z M 967,659 C 966,760 938,841 883,901 828,961 755,991 664,991 561,991 479,962 418,904 356,846 320,764 311,659 311,659 311,659 967,659 Z" />
      </glyph>
      <glyph
         id="glyph9163"
         horiz-adv-x="1006"
         unicode="g">
        <path
           id="path9165"
           d="M 930,573 C 930,706 903,810 848,883 793,956 715,993 616,993 517,993 441,956 386,883 331,810 303,706 303,573 303,440 331,337 386,264 441,191 517,154 616,154 715,154 793,191 848,264 903,337 930,440 930,573 Z M 1114,139 C 1114,-52 1072,-193 987,-287 902,-379 773,-426 598,-426 533,-426 472,-421 415,-412 358,-402 302,-387 248,-367 248,-367 248,-367 248,-188 302,-217 355,-239 408,-253 461,-267 514,-274 569,-274 690,-274 780,-242 840,-180 900,-116 930,-21 930,106 930,106 930,106 930,197 892,131 843,82 784,49 725,16 654,0 571,0 434,0 323,52 239,157 155,262 113,400 113,573 113,746 155,885 239,990 323,1095 434,1147 571,1147 654,1147 725,1131 784,1098 843,1065 892,1016 930,950 930,950 930,950 930,1120 930,1120 930,1120 1114,1120 1114,1120 1114,1120 1114,139 Z" />
      </glyph>
      <glyph
         id="glyph9167"
         horiz-adv-x="953"
         unicode="h">
        <path
           id="path9169"
           d="M 1124,676 C 1124,676 1124,676 1124,0 1124,0 1124,0 940,0 940,0 940,0 940,670 940,776 919,855 878,908 837,961 775,987 692,987 593,987 514,955 457,892 400,829 371,742 371,633 371,633 371,633 371,0 371,0 371,0 186,0 186,0 186,0 186,1556 186,1556 186,1556 371,1556 371,1556 371,1556 371,946 415,1013 467,1064 527,1097 586,1130 655,1147 733,1147 862,1147 959,1107 1025,1028 1091,948 1124,831 1124,676 Z" />
      </glyph>
      <glyph
         id="glyph9171"
         horiz-adv-x="186"
         unicode="i">
        <path
           id="path9173"
           d="M 193,1120 L 377,1120 377,0 193,0 193,1120 Z M 193,1556 L 377,1556 377,1323 193,1323 193,1556 Z" />
      </glyph>
      <glyph
         id="glyph9175"
         horiz-adv-x="186"
         unicode="l">
        <path
           id="path9177"
           d="M 193,1556 L 377,1556 377,0 193,0 193,1556 Z" />
      </glyph>
      <glyph
         id="glyph9179"
         horiz-adv-x="1641"
         unicode="m">
        <path
           id="path9181"
           d="M 1065,905 C 1111,988 1166,1049 1230,1088 1294,1127 1369,1147 1456,1147 1573,1147 1663,1106 1726,1025 1789,943 1821,827 1821,676 1821,676 1821,676 1821,0 1821,0 1821,0 1636,0 1636,0 1636,0 1636,670 1636,777 1617,857 1579,909 1541,961 1483,987 1405,987 1310,987 1234,955 1179,892 1124,829 1096,742 1096,633 1096,633 1096,633 1096,0 1096,0 1096,0 911,0 911,0 911,0 911,670 911,778 892,858 854,910 816,961 757,987 678,987 584,987 509,955 454,892 399,828 371,742 371,633 371,633 371,633 371,0 371,0 371,0 186,0 186,0 186,0 186,1120 186,1120 186,1120 371,1120 371,1120 371,1120 371,946 413,1015 463,1065 522,1098 581,1131 650,1147 731,1147 812,1147 882,1126 939,1085 996,1044 1038,984 1065,905 Z" />
      </glyph>
      <glyph
         id="glyph9183"
         horiz-adv-x="953"
         unicode="n">
        <path
           id="path9185"
           d="M 1124,676 C 1124,676 1124,676 1124,0 1124,0 1124,0 940,0 940,0 940,0 940,670 940,776 919,855 878,908 837,961 775,987 692,987 593,987 514,955 457,892 400,829 371,742 371,633 371,633 371,633 371,0 371,0 371,0 186,0 186,0 186,0 186,1120 186,1120 186,1120 371,1120 371,1120 371,1120 371,946 415,1013 467,1064 527,1097 586,1130 655,1147 733,1147 862,1147 959,1107 1025,1028 1091,948 1124,831 1124,676 Z" />
      </glyph>
      <glyph
         id="glyph9187"
         horiz-adv-x="1033"
         unicode="o">
        <path
           id="path9189"
           d="M 627,991 C 528,991 450,953 393,876 336,799 307,693 307,559 307,425 336,320 393,243 450,166 528,127 627,127 725,127 803,166 860,243 917,320 946,426 946,559 946,692 917,797 860,875 803,952 725,991 627,991 Z M 627,1147 C 787,1147 913,1095 1004,991 1095,887 1141,743 1141,559 1141,376 1095,232 1004,128 913,23 787,-29 627,-29 466,-29 341,23 250,128 159,232 113,376 113,559 113,743 159,887 250,991 341,1095 466,1147 627,1147 Z" />
      </glyph>
      <glyph
         id="glyph9191"
         horiz-adv-x="1006"
         unicode="p">
        <path
           id="path9193"
           d="M 371,168 C 371,168 371,168 371,-426 371,-426 371,-426 186,-426 186,-426 186,-426 186,1120 186,1120 186,1120 371,1120 371,1120 371,1120 371,950 410,1017 459,1066 518,1099 577,1131 647,1147 729,1147 865,1147 976,1093 1061,985 1146,877 1188,735 1188,559 1188,383 1146,241 1061,133 976,25 865,-29 729,-29 647,-29 577,-13 518,20 459,52 410,101 371,168 Z M 997,559 C 997,694 969,801 914,878 858,955 781,993 684,993 587,993 510,955 455,878 399,801 371,694 371,559 371,424 399,318 455,241 510,164 587,125 684,125 781,125 858,164 914,241 969,318 997,424 997,559 Z" />
      </glyph>
      <glyph
         id="glyph9195"
         horiz-adv-x="689"
         unicode="r">
        <path
           id="path9197"
           d="M 842,948 C 821,960 799,969 775,975 750,980 723,983 694,983 590,983 510,949 455,882 399,814 371,717 371,590 371,590 371,590 371,0 371,0 371,0 186,0 186,0 186,0 186,1120 186,1120 186,1120 371,1120 371,1120 371,1120 371,946 410,1014 460,1065 522,1098 584,1131 659,1147 748,1147 761,1147 775,1146 790,1145 805,1143 822,1140 841,1137 841,1137 841,1137 842,948 Z" />
      </glyph>
      <glyph
         id="glyph9199"
         horiz-adv-x="848"
         unicode="s">
        <path
           id="path9201"
           d="M 907,1087 C 907,1087 907,1087 907,913 855,940 801,960 745,973 689,986 631,993 571,993 480,993 411,979 366,951 320,923 297,881 297,825 297,782 313,749 346,725 379,700 444,677 543,655 543,655 543,655 606,641 737,613 830,574 885,523 940,472 967,400 967,309 967,205 926,123 844,62 761,1 648,-29 504,-29 444,-29 382,-23 317,-12 252,0 183,18 111,41 111,41 111,41 111,231 179,196 246,169 312,152 378,134 443,125 508,125 595,125 661,140 708,170 755,199 778,241 778,295 778,345 761,383 728,410 694,437 620,462 506,487 506,487 506,487 442,502 328,526 246,563 195,613 144,662 119,730 119,817 119,922 156,1004 231,1061 306,1118 412,1147 549,1147 617,1147 681,1142 741,1132 801,1122 856,1107 907,1087 Z" />
      </glyph>
      <glyph
         id="glyph9203"
         horiz-adv-x="689"
         unicode="t">
        <path
           id="path9205"
           d="M 375,1438 C 375,1438 375,1438 375,1120 375,1120 375,1120 754,1120 754,1120 754,1120 754,977 754,977 754,977 375,977 375,977 375,977 375,369 375,278 388,219 413,193 438,167 488,154 565,154 565,154 565,154 754,154 754,154 754,154 754,0 754,0 754,0 565,0 423,0 325,27 271,80 217,133 190,229 190,369 190,369 190,369 190,977 190,977 190,977 55,977 55,977 55,977 55,1120 55,1120 55,1120 190,1120 190,1120 190,1120 190,1438 190,1438 190,1438 375,1438 Z" />
      </glyph>
      <glyph
         id="glyph9207"
         horiz-adv-x="927"
         unicode="u">
        <path
           id="path9209"
           d="M 174,442 C 174,442 174,442 174,1120 174,1120 174,1120 358,1120 358,1120 358,1120 358,449 358,343 379,264 420,211 461,158 523,131 606,131 705,131 784,163 842,226 899,289 928,376 928,485 928,485 928,485 928,1120 928,1120 928,1120 1112,1120 1112,1120 1112,1120 1112,0 1112,0 1112,0 928,0 928,0 928,0 928,172 883,104 832,54 773,21 714,-12 645,-29 567,-29 438,-29 341,11 274,91 207,171 174,288 174,442 Z" />
      </glyph>
      <glyph
         id="glyph9211"
         horiz-adv-x="1086"
         unicode="v">
        <path
           id="path9213"
           d="M 61,1120 L 256,1120 606,180 956,1120 1151,1120 731,0 481,0 61,1120 Z" />
      </glyph>
      <glyph
         id="glyph9215"
         horiz-adv-x="1086"
         unicode="x">
        <path
           id="path9217"
           d="M 1124,1120 L 719,575 1145,0 928,0 602,440 276,0 59,0 494,586 96,1120 313,1120 610,721 907,1120 1124,1120 Z" />
      </glyph>
      <glyph
         id="glyph9219"
         horiz-adv-x="901"
         unicode="z">
        <path
           id="path9221"
           d="M 113,1120 L 987,1120 987,952 295,147 987,147 987,0 88,0 88,168 780,973 113,973 113,1120 Z" />
      </glyph>
      <glyph
         id="glyph9223"
         horiz-adv-x="636"
         unicode="°">
        <path
           id="path9225"
           d="M 512,1391 C 459,1391 414,1373 377,1336 340,1299 322,1253 322,1200 322,1147 340,1103 377,1067 414,1030 459,1012 512,1012 565,1012 610,1030 647,1067 684,1103 702,1147 702,1200 702,1253 684,1298 647,1335 610,1372 565,1391 512,1391 Z M 512,1520 C 555,1520 596,1512 635,1496 674,1479 708,1456 737,1425 768,1395 791,1361 806,1323 821,1285 829,1244 829,1200 829,1112 798,1038 737,977 675,916 599,885 510,885 420,885 345,915 285,975 225,1035 195,1110 195,1200 195,1289 226,1365 287,1427 348,1489 423,1520 512,1520 Z" />
      </glyph>
      <glyph
         id="glyph9227"
         horiz-adv-x="1033"
         unicode="é">
        <path
           id="path9229"
           d="M 1151,606 C 1151,606 1151,606 1151,516 1151,516 1151,516 305,516 313,389 351,293 420,227 488,160 583,127 705,127 776,127 844,136 911,153 977,170 1043,196 1108,231 1108,231 1108,231 1108,57 1042,29 974,8 905,-7 836,-22 765,-29 694,-29 515,-29 374,23 270,127 165,231 113,372 113,549 113,732 163,878 262,986 361,1093 494,1147 662,1147 813,1147 932,1099 1020,1002 1107,905 1151,773 1151,606 Z M 967,659 C 966,760 938,841 883,901 828,961 755,991 664,991 561,991 479,962 418,904 356,846 320,764 311,659 311,659 311,659 967,659 Z M 790,1638 L 989,1638 663,1262 510,1262 790,1638 Z" />
      </glyph>
    </font>
    <desc
       id="desc9235">Slide</desc>
    <desc
       id="desc9232">Master slide</desc>
    <desc
       id="desc11604">Drawing</desc>
    <desc
       id="desc10479">Drawing</desc>
    <font
       horiz-adv-x="2048"
       id="font7512">
      <font-face
         id="font-face5791"
         descent="476"
         ascent="1879"
         units-per-em="2048"
         font-family="DejaVu Sans embedded" />
      <missing-glyph
         id="missing-glyph5793"
         horiz-adv-x="2048">
        <path
           id="path5795"
           d="M 0,2048 L 2047,2048 2047,1 0,1 0,2048 Z"
           style="fill:none;stroke:black;stroke-width:33" />
      </missing-glyph>
      <glyph
         id="glyph5797"
         horiz-adv-x="1191"
         unicode=" " />
      <glyph
         id="glyph5799"
         horiz-adv-x="1271"
         unicode="+">
        <path
           id="path5801"
           d="M 942,1284 L 942,727 1499,727 1499,557 942,557 942,0 774,0 774,557 217,557 217,727 774,727 774,1284 942,1284 Z" />
      </glyph>
      <glyph
         id="glyph5803"
         horiz-adv-x="319"
         unicode=",">
        <path
           id="path5805"
           d="M 240,254 L 451,254 451,82 287,-238 158,-238 240,82 240,254 Z" />
      </glyph>
      <glyph
         id="glyph5807"
         horiz-adv-x="557"
         unicode="-">
        <path
           id="path5809"
           d="M 100,643 L 639,643 639,479 100,479 100,643 Z" />
      </glyph>
      <glyph
         id="glyph5811"
         horiz-adv-x="1033"
         unicode="0">
        <path
           id="path5813"
           d="M 651,1360 C 547,1360 469,1309 417,1207 364,1104 338,950 338,745 338,540 364,387 417,285 469,182 547,131 651,131 756,131 834,182 887,285 939,387 965,540 965,745 965,950 939,1104 887,1207 834,1309 756,1360 651,1360 Z M 651,1520 C 818,1520 946,1454 1035,1322 1123,1189 1167,997 1167,745 1167,494 1123,302 1035,170 946,37 818,-29 651,-29 484,-29 356,37 268,170 179,302 135,494 135,745 135,997 179,1189 268,1322 356,1454 484,1520 651,1520 Z" />
      </glyph>
      <glyph
         id="glyph5815"
         horiz-adv-x="900"
         unicode="1">
        <path
           id="path5817"
           d="M 254,170 L 584,170 584,1309 225,1237 225,1421 582,1493 784,1493 784,170 1114,170 1114,0 254,0 254,170 Z" />
      </glyph>
      <glyph
         id="glyph5819"
         horiz-adv-x="980"
         unicode="3">
        <path
           id="path5821"
           d="M 831,805 C 928,784 1003,741 1058,676 1112,611 1139,530 1139,434 1139,287 1088,173 987,92 886,11 742,-29 555,-29 492,-29 428,-23 362,-11 295,2 227,20 156,45 156,45 156,45 156,240 212,207 273,183 340,166 407,149 476,141 549,141 676,141 772,166 839,216 905,266 938,339 938,434 938,522 907,591 846,641 784,690 698,715 588,715 588,715 588,715 414,715 414,715 414,715 414,881 414,881 414,881 596,881 695,881 771,901 824,941 877,980 903,1037 903,1112 903,1189 876,1248 822,1289 767,1330 689,1350 588,1350 533,1350 473,1344 410,1332 347,1320 277,1301 201,1276 201,1276 201,1276 201,1456 278,1477 350,1493 417,1504 484,1515 547,1520 606,1520 759,1520 881,1485 970,1416 1059,1346 1104,1252 1104,1133 1104,1050 1080,981 1033,924 986,867 918,827 831,805 Z" />
      </glyph>
      <glyph
         id="glyph5823"
         horiz-adv-x="1033"
         unicode="6">
        <path
           id="path5825"
           d="M 676,827 C 585,827 514,796 461,734 408,672 381,587 381,479 381,372 408,287 461,225 514,162 585,131 676,131 767,131 839,162 892,225 945,287 971,372 971,479 971,587 945,672 892,734 839,796 767,827 676,827 Z M 1077,1460 C 1077,1460 1077,1460 1077,1276 1026,1300 975,1318 924,1331 872,1344 821,1350 770,1350 637,1350 535,1305 465,1215 394,1125 354,989 344,807 383,865 433,910 492,941 551,972 617,987 688,987 838,987 957,942 1044,851 1131,760 1174,636 1174,479 1174,326 1129,203 1038,110 947,17 827,-29 676,-29 503,-29 371,37 280,170 189,302 143,494 143,745 143,981 199,1169 311,1310 423,1450 573,1520 762,1520 813,1520 864,1515 916,1505 967,1495 1021,1480 1077,1460 Z" />
      </glyph>
      <glyph
         id="glyph5827"
         horiz-adv-x="1007"
         unicode="8">
        <path
           id="path5829"
           d="M 651,709 C 555,709 480,683 425,632 370,581 342,510 342,420 342,330 370,259 425,208 480,157 555,131 651,131 747,131 823,157 878,209 933,260 961,331 961,420 961,510 934,581 879,632 824,683 748,709 651,709 Z M 449,795 C 362,816 295,857 247,916 198,975 174,1048 174,1133 174,1252 217,1347 302,1416 387,1485 503,1520 651,1520 800,1520 916,1485 1001,1416 1086,1347 1128,1252 1128,1133 1128,1048 1104,975 1056,916 1007,857 940,816 854,795 951,772 1027,728 1082,662 1136,596 1163,515 1163,420 1163,275 1119,164 1031,87 942,10 816,-29 651,-29 486,-29 360,10 272,87 183,164 139,275 139,420 139,515 166,596 221,662 276,728 352,772 449,795 Z M 375,1114 C 375,1037 399,976 448,933 496,890 564,868 651,868 738,868 806,890 855,933 904,976 928,1037 928,1114 928,1191 904,1252 855,1295 806,1338 738,1360 651,1360 564,1360 496,1338 448,1295 399,1252 375,1191 375,1114 Z" />
      </glyph>
      <glyph
         id="glyph5831"
         horiz-adv-x="1191"
         unicode="C">
        <path
           id="path5833"
           d="M 1319,1378 C 1319,1378 1319,1378 1319,1165 1251,1228 1179,1276 1102,1307 1025,1338 943,1354 856,1354 685,1354 555,1302 464,1198 373,1093 328,942 328,745 328,548 373,398 464,294 555,189 685,137 856,137 943,137 1025,153 1102,184 1179,215 1251,263 1319,326 1319,326 1319,326 1319,115 1248,67 1174,31 1095,7 1016,-17 932,-29 844,-29 618,-29 440,40 310,179 180,317 115,506 115,745 115,985 180,1174 310,1313 440,1451 618,1520 844,1520 933,1520 1018,1508 1097,1485 1176,1461 1250,1425 1319,1378 Z" />
      </glyph>
      <glyph
         id="glyph5835"
         horiz-adv-x="1245"
         unicode="D">
        <path
           id="path5837"
           d="M 403,1327 C 403,1327 403,1327 403,166 403,166 403,166 647,166 853,166 1004,213 1100,306 1195,399 1243,547 1243,748 1243,948 1195,1095 1100,1188 1004,1281 853,1327 647,1327 647,1327 647,1327 403,1327 Z M 201,1493 C 201,1493 201,1493 616,1493 905,1493 1118,1433 1253,1313 1388,1192 1456,1004 1456,748 1456,491 1388,302 1252,181 1116,60 904,0 616,0 616,0 616,0 201,0 201,0 201,0 201,1493 Z" />
      </glyph>
      <glyph
         id="glyph5839"
         horiz-adv-x="874"
         unicode="F">
        <path
           id="path5841"
           d="M 201,1493 L 1059,1493 1059,1323 403,1323 403,883 995,883 995,713 403,713 403,0 201,0 201,1493 Z" />
      </glyph>
      <glyph
         id="glyph5843"
         horiz-adv-x="1351"
         unicode="M">
        <path
           id="path5845"
           d="M 201,1493 L 502,1493 883,477 1266,1493 1567,1493 1567,0 1370,0 1370,1311 985,287 782,287 397,1311 397,0 201,0 201,1493 Z" />
      </glyph>
      <glyph
         id="glyph5847"
         horiz-adv-x="1059"
         unicode="S">
        <path
           id="path5849"
           d="M 1096,1444 C 1096,1444 1096,1444 1096,1247 1019,1284 947,1311 879,1329 811,1347 745,1356 682,1356 572,1356 487,1335 428,1292 368,1249 338,1189 338,1110 338,1044 358,994 398,961 437,927 512,900 623,879 623,879 623,879 745,854 896,825 1007,775 1079,703 1150,630 1186,533 1186,412 1186,267 1138,158 1041,83 944,8 801,-29 614,-29 543,-29 468,-21 389,-5 309,11 226,35 141,66 141,66 141,66 141,274 223,228 303,193 382,170 461,147 538,135 614,135 729,135 818,158 881,203 944,248 975,313 975,397 975,470 953,528 908,569 863,610 789,641 686,662 686,662 686,662 563,686 412,716 303,763 236,827 169,891 135,980 135,1094 135,1226 182,1330 275,1406 368,1482 496,1520 659,1520 729,1520 800,1514 873,1501 946,1488 1020,1469 1096,1444 Z" />
      </glyph>
      <glyph
         id="glyph5851"
         horiz-adv-x="953"
         unicode="a">
        <path
           id="path5853"
           d="M 702,563 C 553,563 450,546 393,512 336,478 307,420 307,338 307,273 329,221 372,183 415,144 473,125 547,125 649,125 731,161 793,234 854,306 885,402 885,522 885,522 885,522 885,563 885,563 885,563 702,563 Z M 1069,639 C 1069,639 1069,639 1069,0 1069,0 1069,0 885,0 885,0 885,0 885,170 843,102 791,52 728,20 665,-13 589,-29 498,-29 383,-29 292,3 225,68 157,132 123,218 123,326 123,452 165,547 250,611 334,675 460,707 627,707 627,707 627,707 885,707 885,707 885,707 885,725 885,810 857,875 802,922 746,968 668,991 567,991 503,991 441,983 380,968 319,953 261,930 205,899 205,899 205,899 205,1069 272,1095 338,1115 401,1128 464,1141 526,1147 586,1147 748,1147 869,1105 949,1021 1029,937 1069,810 1069,639 Z" />
      </glyph>
      <glyph
         id="glyph5855"
         horiz-adv-x="1006"
         unicode="b">
        <path
           id="path5857"
           d="M 997,559 C 997,694 969,801 914,878 858,955 781,993 684,993 587,993 510,955 455,878 399,801 371,694 371,559 371,424 399,318 455,241 510,164 587,125 684,125 781,125 858,164 914,241 969,318 997,424 997,559 Z M 371,950 C 410,1017 459,1066 518,1099 577,1131 647,1147 729,1147 865,1147 976,1093 1061,985 1146,877 1188,735 1188,559 1188,383 1146,241 1061,133 976,25 865,-29 729,-29 647,-29 577,-13 518,20 459,52 410,101 371,168 371,168 371,168 371,0 371,0 371,0 186,0 186,0 186,0 186,1556 186,1556 186,1556 371,1556 371,1556 371,1556 371,950 Z" />
      </glyph>
      <glyph
         id="glyph5859"
         horiz-adv-x="874"
         unicode="c">
        <path
           id="path5861"
           d="M 999,1077 C 999,1077 999,1077 999,905 947,934 895,955 843,970 790,984 737,991 684,991 565,991 472,953 406,878 340,802 307,696 307,559 307,422 340,316 406,241 472,165 565,127 684,127 737,127 790,134 843,149 895,163 947,184 999,213 999,213 999,213 999,43 948,19 895,1 840,-11 785,-23 726,-29 664,-29 495,-29 361,24 262,130 163,236 113,379 113,559 113,742 163,885 264,990 364,1095 501,1147 676,1147 733,1147 788,1141 842,1130 896,1118 948,1100 999,1077 Z" />
      </glyph>
      <glyph
         id="glyph5863"
         horiz-adv-x="1006"
         unicode="d">
        <path
           id="path5865"
           d="M 930,950 C 930,950 930,950 930,1556 930,1556 930,1556 1114,1556 1114,1556 1114,1556 1114,0 1114,0 1114,0 930,0 930,0 930,0 930,168 891,101 843,52 784,20 725,-13 654,-29 571,-29 436,-29 326,25 241,133 156,241 113,383 113,559 113,735 156,877 241,985 326,1093 436,1147 571,1147 654,1147 725,1131 784,1099 843,1066 891,1017 930,950 Z M 303,559 C 303,424 331,318 387,241 442,164 519,125 616,125 713,125 790,164 846,241 902,318 930,424 930,559 930,694 902,801 846,878 790,955 713,993 616,993 519,993 442,955 387,878 331,801 303,694 303,559 Z" />
      </glyph>
      <glyph
         id="glyph5867"
         horiz-adv-x="1033"
         unicode="e">
        <path
           id="path5869"
           d="M 1151,606 C 1151,606 1151,606 1151,516 1151,516 1151,516 305,516 313,389 351,293 420,227 488,160 583,127 705,127 776,127 844,136 911,153 977,170 1043,196 1108,231 1108,231 1108,231 1108,57 1042,29 974,8 905,-7 836,-22 765,-29 694,-29 515,-29 374,23 270,127 165,231 113,372 113,549 113,732 163,878 262,986 361,1093 494,1147 662,1147 813,1147 932,1099 1020,1002 1107,905 1151,773 1151,606 Z M 967,659 C 966,760 938,841 883,901 828,961 755,991 664,991 561,991 479,962 418,904 356,846 320,764 311,659 311,659 311,659 967,659 Z" />
      </glyph>
      <glyph
         id="glyph5871"
         horiz-adv-x="716"
         unicode="f">
        <path
           id="path5873"
           d="M 760,1556 C 760,1556 760,1556 760,1403 760,1403 760,1403 584,1403 518,1403 472,1390 447,1363 421,1336 408,1288 408,1219 408,1219 408,1219 408,1120 408,1120 408,1120 711,1120 711,1120 711,1120 711,977 711,977 711,977 408,977 408,977 408,977 408,0 408,0 408,0 223,0 223,0 223,0 223,977 223,977 223,977 47,977 47,977 47,977 47,1120 47,1120 47,1120 223,1120 223,1120 223,1120 223,1198 223,1323 252,1414 310,1471 368,1528 460,1556 586,1556 586,1556 586,1556 760,1556 Z" />
      </glyph>
      <glyph
         id="glyph5875"
         horiz-adv-x="1006"
         unicode="g">
        <path
           id="path5877"
           d="M 930,573 C 930,706 903,810 848,883 793,956 715,993 616,993 517,993 441,956 386,883 331,810 303,706 303,573 303,440 331,337 386,264 441,191 517,154 616,154 715,154 793,191 848,264 903,337 930,440 930,573 Z M 1114,139 C 1114,-52 1072,-193 987,-287 902,-379 773,-426 598,-426 533,-426 472,-421 415,-412 358,-402 302,-387 248,-367 248,-367 248,-367 248,-188 302,-217 355,-239 408,-253 461,-267 514,-274 569,-274 690,-274 780,-242 840,-180 900,-116 930,-21 930,106 930,106 930,106 930,197 892,131 843,82 784,49 725,16 654,0 571,0 434,0 323,52 239,157 155,262 113,400 113,573 113,746 155,885 239,990 323,1095 434,1147 571,1147 654,1147 725,1131 784,1098 843,1065 892,1016 930,950 930,950 930,950 930,1120 930,1120 930,1120 1114,1120 1114,1120 1114,1120 1114,139 Z" />
      </glyph>
      <glyph
         id="glyph5879"
         horiz-adv-x="953"
         unicode="h">
        <path
           id="path5881"
           d="M 1124,676 C 1124,676 1124,676 1124,0 1124,0 1124,0 940,0 940,0 940,0 940,670 940,776 919,855 878,908 837,961 775,987 692,987 593,987 514,955 457,892 400,829 371,742 371,633 371,633 371,633 371,0 371,0 371,0 186,0 186,0 186,0 186,1556 186,1556 186,1556 371,1556 371,1556 371,1556 371,946 415,1013 467,1064 527,1097 586,1130 655,1147 733,1147 862,1147 959,1107 1025,1028 1091,948 1124,831 1124,676 Z" />
      </glyph>
      <glyph
         id="glyph5883"
         horiz-adv-x="186"
         unicode="i">
        <path
           id="path5885"
           d="M 193,1120 L 377,1120 377,0 193,0 193,1120 Z M 193,1556 L 377,1556 377,1323 193,1323 193,1556 Z" />
      </glyph>
      <glyph
         id="glyph5887"
         horiz-adv-x="1006"
         unicode="k">
        <path
           id="path5889"
           d="M 186,1556 L 371,1556 371,637 920,1120 1155,1120 561,596 1180,0 940,0 371,547 371,0 186,0 186,1556 Z" />
      </glyph>
      <glyph
         id="glyph5891"
         horiz-adv-x="186"
         unicode="l">
        <path
           id="path5893"
           d="M 193,1556 L 377,1556 377,0 193,0 193,1556 Z" />
      </glyph>
      <glyph
         id="glyph5895"
         horiz-adv-x="1641"
         unicode="m">
        <path
           id="path5897"
           d="M 1065,905 C 1111,988 1166,1049 1230,1088 1294,1127 1369,1147 1456,1147 1573,1147 1663,1106 1726,1025 1789,943 1821,827 1821,676 1821,676 1821,676 1821,0 1821,0 1821,0 1636,0 1636,0 1636,0 1636,670 1636,777 1617,857 1579,909 1541,961 1483,987 1405,987 1310,987 1234,955 1179,892 1124,829 1096,742 1096,633 1096,633 1096,633 1096,0 1096,0 1096,0 911,0 911,0 911,0 911,670 911,778 892,858 854,910 816,961 757,987 678,987 584,987 509,955 454,892 399,828 371,742 371,633 371,633 371,633 371,0 371,0 371,0 186,0 186,0 186,0 186,1120 186,1120 186,1120 371,1120 371,1120 371,1120 371,946 413,1015 463,1065 522,1098 581,1131 650,1147 731,1147 812,1147 882,1126 939,1085 996,1044 1038,984 1065,905 Z" />
      </glyph>
      <glyph
         id="glyph5899"
         horiz-adv-x="953"
         unicode="n">
        <path
           id="path5901"
           d="M 1124,676 C 1124,676 1124,676 1124,0 1124,0 1124,0 940,0 940,0 940,0 940,670 940,776 919,855 878,908 837,961 775,987 692,987 593,987 514,955 457,892 400,829 371,742 371,633 371,633 371,633 371,0 371,0 371,0 186,0 186,0 186,0 186,1120 186,1120 186,1120 371,1120 371,1120 371,1120 371,946 415,1013 467,1064 527,1097 586,1130 655,1147 733,1147 862,1147 959,1107 1025,1028 1091,948 1124,831 1124,676 Z" />
      </glyph>
      <glyph
         id="glyph5903"
         horiz-adv-x="1033"
         unicode="o">
        <path
           id="path5905"
           d="M 627,991 C 528,991 450,953 393,876 336,799 307,693 307,559 307,425 336,320 393,243 450,166 528,127 627,127 725,127 803,166 860,243 917,320 946,426 946,559 946,692 917,797 860,875 803,952 725,991 627,991 Z M 627,1147 C 787,1147 913,1095 1004,991 1095,887 1141,743 1141,559 1141,376 1095,232 1004,128 913,23 787,-29 627,-29 466,-29 341,23 250,128 159,232 113,376 113,559 113,743 159,887 250,991 341,1095 466,1147 627,1147 Z" />
      </glyph>
      <glyph
         id="glyph5907"
         horiz-adv-x="1006"
         unicode="p">
        <path
           id="path5909"
           d="M 371,168 C 371,168 371,168 371,-426 371,-426 371,-426 186,-426 186,-426 186,-426 186,1120 186,1120 186,1120 371,1120 371,1120 371,1120 371,950 410,1017 459,1066 518,1099 577,1131 647,1147 729,1147 865,1147 976,1093 1061,985 1146,877 1188,735 1188,559 1188,383 1146,241 1061,133 976,25 865,-29 729,-29 647,-29 577,-13 518,20 459,52 410,101 371,168 Z M 997,559 C 997,694 969,801 914,878 858,955 781,993 684,993 587,993 510,955 455,878 399,801 371,694 371,559 371,424 399,318 455,241 510,164 587,125 684,125 781,125 858,164 914,241 969,318 997,424 997,559 Z" />
      </glyph>
      <glyph
         id="glyph5911"
         horiz-adv-x="1006"
         unicode="q">
        <path
           id="path5913"
           d="M 303,559 C 303,424 331,318 387,241 442,164 519,125 616,125 713,125 790,164 846,241 902,318 930,424 930,559 930,694 902,801 846,878 790,955 713,993 616,993 519,993 442,955 387,878 331,801 303,694 303,559 Z M 930,168 C 891,101 843,52 784,20 725,-13 654,-29 571,-29 436,-29 326,25 241,133 156,241 113,383 113,559 113,735 156,877 241,985 326,1093 436,1147 571,1147 654,1147 725,1131 784,1099 843,1066 891,1017 930,950 930,950 930,950 930,1120 930,1120 930,1120 1114,1120 1114,1120 1114,1120 1114,-426 1114,-426 1114,-426 930,-426 930,-426 930,-426 930,168 Z" />
      </glyph>
      <glyph
         id="glyph5915"
         horiz-adv-x="689"
         unicode="r">
        <path
           id="path5917"
           d="M 842,948 C 821,960 799,969 775,975 750,980 723,983 694,983 590,983 510,949 455,882 399,814 371,717 371,590 371,590 371,590 371,0 371,0 371,0 186,0 186,0 186,0 186,1120 186,1120 186,1120 371,1120 371,1120 371,1120 371,946 410,1014 460,1065 522,1098 584,1131 659,1147 748,1147 761,1147 775,1146 790,1145 805,1143 822,1140 841,1137 841,1137 841,1137 842,948 Z" />
      </glyph>
      <glyph
         id="glyph5919"
         horiz-adv-x="848"
         unicode="s">
        <path
           id="path5921"
           d="M 907,1087 C 907,1087 907,1087 907,913 855,940 801,960 745,973 689,986 631,993 571,993 480,993 411,979 366,951 320,923 297,881 297,825 297,782 313,749 346,725 379,700 444,677 543,655 543,655 543,655 606,641 737,613 830,574 885,523 940,472 967,400 967,309 967,205 926,123 844,62 761,1 648,-29 504,-29 444,-29 382,-23 317,-12 252,0 183,18 111,41 111,41 111,41 111,231 179,196 246,169 312,152 378,134 443,125 508,125 595,125 661,140 708,170 755,199 778,241 778,295 778,345 761,383 728,410 694,437 620,462 506,487 506,487 506,487 442,502 328,526 246,563 195,613 144,662 119,730 119,817 119,922 156,1004 231,1061 306,1118 412,1147 549,1147 617,1147 681,1142 741,1132 801,1122 856,1107 907,1087 Z" />
      </glyph>
      <glyph
         id="glyph5923"
         horiz-adv-x="689"
         unicode="t">
        <path
           id="path5925"
           d="M 375,1438 C 375,1438 375,1438 375,1120 375,1120 375,1120 754,1120 754,1120 754,1120 754,977 754,977 754,977 375,977 375,977 375,977 375,369 375,278 388,219 413,193 438,167 488,154 565,154 565,154 565,154 754,154 754,154 754,154 754,0 754,0 754,0 565,0 423,0 325,27 271,80 217,133 190,229 190,369 190,369 190,369 190,977 190,977 190,977 55,977 55,977 55,977 55,1120 55,1120 55,1120 190,1120 190,1120 190,1120 190,1438 190,1438 190,1438 375,1438 Z" />
      </glyph>
      <glyph
         id="glyph5927"
         horiz-adv-x="927"
         unicode="u">
        <path
           id="path5929"
           d="M 174,442 C 174,442 174,442 174,1120 174,1120 174,1120 358,1120 358,1120 358,1120 358,449 358,343 379,264 420,211 461,158 523,131 606,131 705,131 784,163 842,226 899,289 928,376 928,485 928,485 928,485 928,1120 928,1120 928,1120 1112,1120 1112,1120 1112,1120 1112,0 1112,0 1112,0 928,0 928,0 928,0 928,172 883,104 832,54 773,21 714,-12 645,-29 567,-29 438,-29 341,11 274,91 207,171 174,288 174,442 Z" />
      </glyph>
      <glyph
         id="glyph5931"
         horiz-adv-x="1086"
         unicode="v">
        <path
           id="path5933"
           d="M 61,1120 L 256,1120 606,180 956,1120 1151,1120 731,0 481,0 61,1120 Z" />
      </glyph>
      <glyph
         id="glyph5935"
         horiz-adv-x="636"
         unicode="°">
        <path
           id="path5937"
           d="M 512,1391 C 459,1391 414,1373 377,1336 340,1299 322,1253 322,1200 322,1147 340,1103 377,1067 414,1030 459,1012 512,1012 565,1012 610,1030 647,1067 684,1103 702,1147 702,1200 702,1253 684,1298 647,1335 610,1372 565,1391 512,1391 Z M 512,1520 C 555,1520 596,1512 635,1496 674,1479 708,1456 737,1425 768,1395 791,1361 806,1323 821,1285 829,1244 829,1200 829,1112 798,1038 737,977 675,916 599,885 510,885 420,885 345,915 285,975 225,1035 195,1110 195,1200 195,1289 226,1365 287,1427 348,1489 423,1520 512,1520 Z" />
      </glyph>
      <glyph
         id="glyph5939"
         horiz-adv-x="1033"
         unicode="é">
        <path
           id="path5941"
           d="M 1151,606 C 1151,606 1151,606 1151,516 1151,516 1151,516 305,516 313,389 351,293 420,227 488,160 583,127 705,127 776,127 844,136 911,153 977,170 1043,196 1108,231 1108,231 1108,231 1108,57 1042,29 974,8 905,-7 836,-22 765,-29 694,-29 515,-29 374,23 270,127 165,231 113,372 113,549 113,732 163,878 262,986 361,1093 494,1147 662,1147 813,1147 932,1099 1020,1002 1107,905 1151,773 1151,606 Z M 967,659 C 966,760 938,841 883,901 828,961 755,991 664,991 561,991 479,962 418,904 356,846 320,764 311,659 311,659 311,659 967,659 Z M 790,1638 L 989,1638 663,1262 510,1262 790,1638 Z" />
      </glyph>
    </font>
</defs>
</svg>
